Trang ChínhThành viênĐăng kýĐăng NhậpPhotoShop OnLine

Share | 
 

 Video - Forever And One - Helloween [720.x264.AC3] - HD - hayhayhay

Xem chủ đề cũ hơn Xem chủ đề mới hơn Go down 
Tác giảThông điệp
vudinhthang1989
Biết lái máy bay
Biết lái máy bay
avatar

Tổng số bài gửi : 444
Điểm số : 2308
Thanked : 16
Đến từ : Hải Dương

Bài gửiTiêu đề: Video - Forever And One - Helloween [720.x264.AC3] - HD - hayhayhay   Wed Jun 29, 2011 4:56 pm

nghe bài này từ lâu mà bây giờ nghe lại vẫn thấy hay. tìm được cái video HD up lên cho anh em nghe cho thích.hiiiii






Complete name : D:Helloween - Forever And One@THH.mkv
Format : Matroska
File size : 234 MiB
Duration : 3mn 52s
Overall bit rate : 8 424 Kbps
Movie name : Helloween - Forever And One
Encoded date : UTC 2011-06-02 15:09:03
Writing application : mkvmerge v4.0.0 ('The Stars were mine') built on Jun 6 2010 16:18:42
Writing library : libebml v1.0.0 + libmatroska v1.0.0

Video
ID : 1
Format : AVC
Format/Info : Advanced Video Codec
Format profile : High@L5.1
Format settings, CABAC : Yes
Format settings, ReFrames : 4 frames
Codec ID : V_MPEG4/ISO/AVC
Duration : 3mn 52s
Bit rate mode : Variable
Bit rate : 8 192 Kbps
Maximum bit rate : 25.0 Mbps
Width : 1 280 pixels
Height : 720 pixels
Display aspect ratio : 16:9
Frame rate : 29.970 fps
Color space : YUV
Chroma subsampling : 4:2:0
Bit depth : 8 bits
Scan type : Progressive
Bits/(Pixel*Frame) : 0.297
Stream size : 223 MiB (95%)
Writing library : x264 core 114 r1924 08d04a4
Encoding settings : cabac=1 / ref=4 / deblock=1:-1:-1 / analyse=0x3:0x133 / me=umh / subme=7 / psy=1 / psy_rd=1.00:0.00 / mixed_ref=1 / me_range=16 / chroma_me=1 / trellis=1 / 8x8dct=1 / cqm=0 / deadzone=21,11 / fast_pskip=1 / chroma_qp_offset=-2 / threads=3 / sliced_threads=0 / nr=0 / decimate=1 / interlaced=0 / constrained_intra=0 / bframes=5 / b_pyramid=0 / b_adapt=1 / b_bias=0 / direct=1 / weightb=1 / open_gop=0 / weightp=2 / keyint=300 / keyint_min=30 / scenecut=40 / intra_refresh=0 / rc_lookahead=40 / rc=2pass / mbtree=1 / bitrate=8192 / ratetol=1.0 / qcomp=0.60 / qpmin=0 / qpmax=69 / qpstep=4 / cplxblur=20.0 / qblur=0.5 / vbv_maxrate=25000 / vbv_bufsize=25000 / nal_hrd=vbr / ip_ratio=1.40 / aq=1:1.00

Audio
ID : 2
Format : AC-3
Format/Info : Audio Coding 3
Mode extension : CM (complete main)
Codec ID : A_AC3
Duration : 3mn 52s
Bit rate mode : Constant
Bit rate : 224 Kbps
Channel(s) : 2 channels
Channel positions : Front: L R
Sampling rate : 48.0 KHz
Bit depth : 16 bits
Compression mode : Lossy
Stream size : 6.22 MiB (3%)

Link download :
mediafire.com ?xzz47qbg13nd111
mediafire.com ?x8a9rkg406brmp1
mediafire.com ?dlr7pt7oiq2clz5
Về Đầu Trang Go down
Xem lý lịch thành viên
 

Video - Forever And One - Helloween [720.x264.AC3] - HD - hayhayhay

Xem chủ đề cũ hơn Xem chủ đề mới hơn Về Đầu Trang 
Trang 1 trong tổng số 1 trang

Permissions in this forum:Bạn không có quyền trả lời bài viết
 :: -‘๑’--‘๑’--‘๑’-Giải trí-‘๑’--‘๑’--‘๑’- :: Film_Video-
Free forum | © phpBB | Free forum support | Report an abuse | Free blog